0 0 0

【美版高码原盘】《宇宙探索编辑部》【🔥值得多刷🔥伪纪录片方式去演员化表演】原盘高码率31Mb/s REMUX +流媒体4K60帧全花絮【24.79GB等】


幻影下载,超好用免费云播软件,满带宽下载,磁力链接,ed2k极速秒播


◎译  名 宇宙探索编辑部 / 宇宙编辑部的故事 / Journey to the West
◎年  代 2021
◎产  地 中国大陆
◎类  别 喜剧 / 科幻
◎语  言 汉语普通话
◎上映日期 2023-04-01(中国大陆) / 2021-10-17(平遥国际影展)
◎IMDb链接 

[upl-image-preview url=https://yunpan1.cc/assets/files/2024-01-12/1705062025-142929-snipaste-2024-01-12-19-07-30.png]
General
Unique ID : 119482357481764627193861132220148073935 (0x59E3770AE565E4BCF8825CCE2ED5C5CF)
Complete name : D:\迅雷云盘\Journey to the West Blu-ray 1080p AVC.REMUX DTS-HD 2.0-DIY@hang.mkv
Format : Matroska
Format version : Version 4
File size : 24.8 GiB
Duration : 1 h 57 min
Overall bit rate mode : Variable
Overall bit rate : 30.1 Mb/s
Frame rate : 24.000 FPS
Movie name : Journey to the West
Encoded date : 2024-01-12 11:05:36 UTC
Writing application : mkvmerge v51.0.0 ('I Wish') 64-bit
Writing library : libebml v1.4.0 + libmatroska v1.6.2
Cover : Yes
Attachments : cover.jpg

Video
ID : 1
ID in the original source medi : 4113 (0x1011)
Format : AVC
Format/Info : Advanced Video Codec
Format profile : High@L4.1
Format settings : CABAC / 3 Ref Frames
Format settings, CABAC : Yes
Format settings, Reference fra : 3 frames
Codec ID : V_MPEG4/ISO/AVC
Duration : 1 h 57 min
Bit rate mode : Variable
Bit rate : 28.5 Mb/s
Maximum bit rate : 40.0 Mb/s
Width : 1 920 pixels
Height : 1 080 pixels
Display aspect ratio : 16:9
Frame rate mode : Constant
Frame rate : 24.000 FPS
Color space : YUV
Chroma subsampling : 4:2:0
Bit depth : 8 bits
Scan type : Progressive
Bits/(Pixel*Frame) : 0.573
Stream size : 23.4 GiB (95%)
Writing library : x264 core 164 r3094 bfc87b7
Encoding settings : cabac=1 / ref=4 / deblock=1:-1:-1 / analyse=0x3:0x133 / me=umh / subme=10 / psy=1 / psy_rd=1.00:0.15 / mixed_ref=1 / me_range=24 / chroma_me=1 / trellis=2 / 8x8dct=1 / cqm=0 / deadzone=21,11 / fast_pskip=1 / chroma_qp_offset=-3 / threads=34 / lookahead_threads=2 / sliced_threads=0 / slices=4 / nr=0 / decimate=1 / interlaced=0 / bluray_compat=1 / constrained_intra=0 / bframes=3 / b_pyramid=1 / b_adapt=2 / b_bias=0 / direct=3 / weightb=1 / open_gop=1 / weightp=1 / keyint=24 / keyint_min=1 / scenecut=40 / intra_refresh=0 / rc_lookahead=24 / rc=2pass / mbtree=1 / bitrate=28500 / ratetol=1.0 / qcomp=0.60 / qpmin=0 / qpmax=69 / qpstep=4 / cplxblur=20.0 / qblur=0.5 / vbv_maxrate=40000 / vbv_bufsize=30000 / nal_hrd=vbr / filler=0 / ip_ratio=1.40 / aq=1:1.00
Default : Yes
Forced : No
Color range : Limited
Color primaries : BT.709
Transfer characteristics : BT.709
Matrix coefficients : BT.709
Original source medium : Blu-ray

Audio
ID : 2
ID in the original source medi : 4352 (0x1100)
Format : DTS XLL
Format/Info : Digital Theater Systems
Commercial name : DTS-HD Master Audio
Codec ID : A_DTS
Duration : 1 h 57 min
Bit rate mode : Variable
Bit rate : 1 588 kb/s
Channel(s) : 2 channels
Channel layout : L R
Sampling rate : 48.0 kHz
Frame rate : 93.750 FPS (512 SPF)
Bit depth : 24 bits
Compression mode : Lossless
Stream size : 1.31 GiB (5%)
Language : Chinese
Default : Yes
Forced : No
Original source medium : Blu-ray

Text #1
ID : 3
ID in the original source medi : 4608 (0x1200)
Format : PGS
Muxing mode : zlib
Codec ID : S_HDMV/PGS
Codec ID/Info : Picture based subtitle format used on BDs/HD-DVDs
Duration : 1 h 47 min
Bit rate : 25.6 kb/s
Frame rate : 0.312 FPS
Count of elements : 2014
Stream size : 19.7 MiB (0%)
Language : English
Default : Yes
Forced : No
Original source medium : Blu-ray

Text #2
ID : 4
ID in the original source medi : 4608 (0x1200)
Format : PGS
Muxing mode : zlib
Codec ID : S_HDMV/PGS
Codec ID/Info : Picture based subtitle format used on BDs/HD-DVDs
Duration : 1 h 47 min
Bit rate : 25.6 kb/s
Frame rate : 0.312 FPS
Count of elements : 2014
Stream size : 19.7 MiB (0%)
Language : English
Default : No
Forced : No
Original source medium : Blu-ray

Text #3
ID : 5
Format : PGS
Muxing mode : zlib
Codec ID : S_HDMV/PGS
Codec ID/Info : Picture based subtitle format used on BDs/HD-DVDs
Duration : 1 h 47 min
Bit rate : 22.0 kb/s
Frame rate : 0.452 FPS
Count of elements : 2916
Stream size : 16.9 MiB (0%)
Title : 简体
Language : Chinese
Default : No
Forced : No

Text #4
ID : 6
Format : PGS
Muxing mode : zlib
Codec ID : S_HDMV/PGS
Codec ID/Info : Picture based subtitle format used on BDs/HD-DVDs
Duration : 1 h 47 min
Bit rate : 22.7 kb/s
Frame rate : 0.452 FPS
Count of elements : 2916
Stream size : 17.4 MiB (0%)
Title : 繁体
Language : Chinese
Default : No
Forced : No
[upl-image-preview url=https://yunpan1.cc/assets/files/2024-01-12/1705062261-647663-snipaste-2024-01-12-19-57-23.png]
[upl-image-preview url=https://yunpan1.cc/assets/files/2024-01-12/1705062262-704495-snipaste-2024-01-12-19-57-44.png]
[upl-image-preview url=https://yunpan1.cc/assets/files/2024-01-12/1705062263-901187-snipaste-2024-01-12-19-57-08.png]

这家伙太懒了,什么也没留下。
最新回复 ( 0 )